** Looking For Any Bengali Songs Or Videos ? Just Leave A Request At Our Comment Box Below And We Will Upload It Within 1-2 Dayz,Thanking U.. **

Monday, February 20, 2012

GANDU The Loser (2010) (18+) BRRip Bengali Movie

*/GANDU - The Loser (2010) (18+)*/
Bengali Film/Movie Download
Watch Online /*

http://img18.imageshack.us/img18/715/17486318688161468003576.jpg

Most awaited Bengali Film by Q



General

Format : MPEG-4
Format profile : Base Media / Version 2
Codec ID : mp42
File size : 238 MiB
Duration : 1h 25mn
Overall bit rate : 388 Kbps



Video

Format : AVC
Format/Info : Advanced Video Codec
Format profile : Main@L1.3
Format settings, CABAC : No
Format settings, ReFrames : 2 frames
Codec ID : avc1
Codec ID/Info : Advanced Video Coding
Duration : 1h 25mn
Bit rate mode : Variable
Bit rate : 258 Kbps
Width : 352 pixels
Height : 288 pixels
Display aspect ratio : 1.222
Frame rate mode : Constant
Frame rate : 25.000 fps
Standard : PAL
Color space : YUV
Chroma subsampling : 4:2:0
Bit depth : 8 bits
Scan type : Progressive
Bits/(Pixel*Frame) : 0.102
Stream size : 158 MiB (66%)
Language : English



Audio

Format : AAC
Format/Info : Advanced Audio Codec
Format profile : LC
Codec ID : 40
Duration : 1h 25mn
Bit rate mode : Constant
Bit rate : 128 Kbps
Channel(s) : 2 channels
Channel positions : Front: L R
Sampling rate : 44.1 KHz
Compression mode : Lossy
Stream size : 77.0 MiB (32%)
Language : English









Click Here to Download the Movie part 1



Click Here to Download the Movie part 2








Blog Widget by LinkWithin
blog comments powered by Disqus
 

Submit Your Site

Small business web directory by catagory and pages
Get listed under my bangla music category. Also try at Beauty | Business | Construction | Education | Finance | Health | Insurance | Jobs | Medical | Real Estate | Travel

Other Sites

Find Us On

Term of Use

This blog DOES NOT host or contain any Songs/ Sound Tracks, Photos, or any Videos . All Songs/ Sound Tracks, Photos, Videos, here are found freely available around the web. We make no guarantees or promises in our service and take no liability for our site's users actions. We are not affiliated nor claim to be affiliated with any of the owners of Songs/ Sound Track, Photo, Video here. All Songs/ Sound Tracks, Photos, or any Videos are copyright of their respective owners.